<?xml version="1.0" standalone="no"?> <!DOCTYPE svg PUBLIC "-//W3C//DTD SVG 1.0//EN" "http://www.w3.org/TR/2001/REC-SVG-20010904/DTD/svg10.dtd" > <svg xmlns="http://www.w3.org/2000/svg" width="100%" height="100%">
<defs >
<font id="MathJax_Size2-Regular" horiz-adv-x="831" ><font-face
    font-family="MathJax_Size2"
    units-per-em="1000"
    panose-1="0 0 0 0 0 0 0 0 0 0"
    ascent="1627"
    descent="-1062"
    alphabetic="0" />
<missing-glyph horiz-adv-x="250" d="M50 0V533H200V0H50ZM100 50H150V483H100V50Z" />
<glyph unicode=" " glyph-name="space" horiz-adv-x="250" />
<glyph unicode="(" glyph-name="parenleft" horiz-adv-x="597" d="M180 96T180 250T205 541T266 770T353 944T444 1069T527 1150H555Q561 1144 561 1141Q561 1137 545 1120T504 1072T447 995T386 878T330 721T288 513T272 251Q272 133 280 56Q293 -87 326 -209T399
-405T475 -531T536 -609T561 -640Q561 -643 555 -649H527Q483 -612 443 -568T353 -443T266 -270T205 -41Z" />
<glyph unicode=")" glyph-name="parenright" horiz-adv-x="597" d="M35 1138Q35 1150 51 1150H56H69Q113 1113 153 1069T243 944T330 771T391 541T416 250T391 -40T330 -270T243 -443T152 -568T69 -649H56Q43 -649 39 -647T35 -637Q65 -607 110 -548Q283 -316
316 56Q324 133 324 251Q324 368 316 445Q278 877 48 1123Q36 1137 35 1138Z" />
<glyph unicode="/" glyph-name="slash" horiz-adv-x="811" d="M78 -649Q56 -646 56 -625Q56 -614 382 261T712 1140Q716 1150 732 1150Q754 1147 754 1126Q754 1116 428 240T98 -639Q94 -649 78 -649Z" />
<glyph unicode="[" glyph-name="bracketleft" horiz-adv-x="472" d="M224 -649V1150H455V1099H275V-598H455V-649H224Z" />
<glyph unicode="\" glyph-name="backslash" horiz-adv-x="811" d="M754 -625Q754 -649 731 -649Q715 -649 712 -639Q709 -635 383 242T55 1124Q54 1135 61 1142T80 1150Q92 1150 98 1140Q101 1137 427 262T754 -625Z" />
<glyph unicode="]" glyph-name="bracketright" horiz-adv-x="472" d="M16 1099V1150H247V-649H16V-598H196V1099H16Z" />
<glyph unicode="{" glyph-name="braceleft" horiz-adv-x="667" d="M547 -643L541 -649H528Q515 -649 503 -645Q324 -582 293 -466Q289 -449 289 -428T287 -200L286 42L284 53Q274 98 248 135T196 190T146 222L121 235Q119 239 119 250Q119 262 121 266T133 273Q262
336 284 449L286 460L287 701Q287 737 287 794Q288 949 292 963Q293 966 293 967Q325 1080 508 1148Q516 1150 527 1150H541L547 1144V1130Q547 1117 546 1115T536 1109Q480 1086 437 1046T381 950L379 940L378 699Q378 657 378 594Q377 452 374 438Q373 437 373
436Q350 348 243 282Q192 257 186 254L176 251L188 245Q211 236 234 223T287 189T340 135T373 65Q373 64 374 63Q377 49 378 -93Q378 -156 378 -198L379 -438L381 -449Q393 -504 436 -544T536 -608Q544 -611 545 -613T547 -629V-643Z" />
<glyph unicode="}" glyph-name="braceright" horiz-adv-x="667" d="M119 1130Q119 1144 121 1147T135 1150H139Q151 1150 182 1138T252 1105T326 1046T373 964Q378 942 378 702Q378 469 379 462Q386 394 439 339Q482 296 535 272Q544 268 545 266T547 251Q547
241 547 238T542 231T531 227T510 217T477 194Q390 129 379 39Q378 32 378 -201Q378 -441 373 -463Q342 -580 165 -644Q152 -649 139 -649Q125 -649 122 -646T119 -629Q119 -622 119 -619T121 -614T124 -610T132 -607T143 -602Q195 -579 235 -539T285 -447Q286
-435 287 -199T289 51Q294 74 300 91T329 138T390 197Q412 213 436 226T475 244L489 250L472 258Q455 265 430 279T377 313T327 366T293 434Q289 451 289 472T287 699Q286 941 285 948Q279 978 262 1005T227 1048T184 1080T151 1100T129 1109L127 1110Q119 1113
119 1130Z" />
<glyph unicode="&#xa0;" glyph-name="uni00A0" horiz-adv-x="250" />
<glyph unicode="&#x2c6;" glyph-name="circumflex" horiz-adv-x="1000" d="M1004 603Q1004 600 999 583T991 565L960 574Q929 582 866 599T745 631L500 698Q497 698 254 631Q197 616 134 599T39 574L8 565Q5 565 0 582T-5 603L26 614Q58 624 124 646T248 687L499
772Q999 604 1004 603Z" />
<glyph unicode="&#x2dc;" glyph-name="tilde" horiz-adv-x="1000" d="M296 691Q258 691 216 683T140 663T79 639T34 619T16 611Q13 619 8 628L0 644L36 662Q206 749 321 749Q410 749 517 710T703 670Q741 670 783 678T859 698T920 722T965 742T983 750Q986 742
991 733L999 717L963 699Q787 611 664 611Q594 611 484 651T296 691Z" />
<glyph unicode="&#x302;" glyph-name="uni0302" horiz-adv-x="0" d="M4 603Q4 600 -1 583T-9 565L-40 574Q-71 582 -134 599T-255 631L-500 698Q-503 698 -746 631Q-803 616 -866 599T-961 574L-992 565Q-995 565 -1000 582T-1005 603L-974 614Q-942 624 -876
646T-752 687L-501 772Q-1 604 4 603Z" />
<glyph unicode="&#x303;" glyph-name="tildecomb" horiz-adv-x="0" d="M-704 691Q-742 691 -784 683T-860 663T-921 639T-966 619T-984 611Q-987 619 -992 628L-1000 644L-964 662Q-794 749 -679 749Q-590 749 -483 710T-297 670Q-259 670 -217 678T-141 698T-80
722T-35 742T-17 750Q-14 742 -9 733L-1 717L-37 699Q-213 611 -336 611Q-405 611 -515 651T-704 691Z" />
<glyph unicode="&#x220f;" glyph-name="product" horiz-adv-x="1278" d="M220 812Q220 813 218 819T214 829T208 840T199 853T185 866T166 878T140 887T107 893T66 896H56V950H1221V896H1211Q1080 896 1058 812V-311Q1076 -396 1211 -396H1221V-450H725V-396H735Q864
-396 888 -314Q889 -312 889 -311V896H388V292L389 -311Q405 -396 542 -396H552V-450H56V-396H66Q195 -396 219 -314Q220 -312 220 -311V812Z" />
<glyph unicode="&#x2210;" glyph-name="uni2210" horiz-adv-x="1278" d="M220 812Q220 813 218 819T214 829T208 840T199 853T185 866T166 878T140 887T107 893T66 896H56V950H552V896H542Q411 896 389 812L388 208V-396H889V812Q889 813 887 819T883 829T877
840T868 853T854 866T835 878T809 887T776 893T735 896H725V950H1221V896H1211Q1080 896 1058 812V-311Q1076 -396 1211 -396H1221V-450H56V-396H66Q195 -396 219 -314Q220 -312 220 -311V812Z" />
<glyph unicode="&#x2211;" glyph-name="summation" horiz-adv-x="1444" d="M60 948Q63 950 665 950H1267L1325 815Q1384 677 1388 669H1348L1341 683Q1320 724 1285 761Q1235 809 1174 838T1033 881T882 898T699 902H574H543H251L259 891Q722 258 724 252Q725
250 724 246Q721 243 460 -56L196 -356Q196 -357 407 -357Q459 -357 548 -357T676 -358Q812 -358 896 -353T1063 -332T1204 -283T1307 -196Q1328 -170 1348 -124H1388Q1388 -125 1381 -145T1356 -210T1325 -294L1267 -449L666 -450Q64 -450 61 -448Q55 -446 55
-439Q55 -437 57 -433L590 177Q590 178 557 222T452 366T322 544L56 909L55 924Q55 945 60 948Z" />
<glyph unicode="&#x221a;" glyph-name="radical" horiz-adv-x="1000" d="M1001 1150Q1017 1150 1020 1132Q1020 1127 741 244L460 -643Q453 -650 436 -650H424Q423 -647 423 -645T421 -640T419 -631T415 -617T408 -594T399 -560T385 -512T367 -448T343 -364T312
-259L203 119L138 41L111 67L212 188L264 248L472 -474L983 1140Q988 1150 1001 1150Z" />
<glyph unicode="&#x222b;" glyph-name="integral'" horiz-adv-x="556" d="M114 -798Q132 -824 165 -824H167Q195 -824 223 -764T275 -600T320 -391T362 -164Q365 -143 367 -133Q439 292 523 655T645 1127Q651 1145 655 1157T672 1201T699 1257T733 1306T777 1346T828
1360Q884 1360 912 1325T944 1245Q944 1220 932 1205T909 1186T887 1183Q866 1183 849 1198T832 1239Q832 1287 885 1296L882 1300Q879 1303 874 1307T866 1313Q851 1323 833 1323Q819 1323 807 1311T775 1255T736 1139T689 936T633 628Q574 293 510 -5T410 -437T355
-629Q278 -862 165 -862Q125 -862 92 -831T55 -746Q55 -711 74 -698T112 -685Q133 -685 150 -700T167 -741Q167 -789 114 -798Z" />
<glyph unicode="&#x222c;" glyph-name="uni222C" horiz-adv-x="1084" d="M114 -798Q132 -824 165 -824H167Q195 -824 223 -764T275 -600T320 -391T362 -164Q365 -143 367 -133Q439 292 523 655T645 1127Q651 1145 655 1157T672 1201T699 1257T733 1306T777 1346T828
1360Q884 1360 912 1325T944 1245Q944 1220 932 1205T909 1186T887 1183Q866 1183 849 1198T832 1239Q832 1287 885 1296L882 1300Q879 1303 874 1307T866 1313Q851 1323 833 1323Q819 1323 807 1311T775 1255T736 1139T689 936T633 628Q574 293 510 -5T410 -437T355
-629Q278 -862 165 -862Q125 -862 92 -831T55 -746Q55 -711 74 -698T112 -685Q133 -685 150 -700T167 -741Q167 -789 114 -798ZM642 -798Q660 -824 693 -824H695Q723 -824 751 -764T803 -600T848 -391T890 -164Q893 -143 895 -133Q967 292 1051 655T1173 1127Q1179
1145 1183 1157T1200 1201T1227 1257T1261 1306T1305 1346T1356 1360Q1412 1360 1440 1325T1472 1245Q1472 1220 1460 1205T1437 1186T1415 1183Q1394 1183 1377 1198T1360 1239Q1360 1287 1413 1296L1410 1300Q1407 1303 1402 1307T1394 1313Q1379 1323 1361 1323Q1347
1323 1335 1311T1303 1255T1264 1139T1217 936T1161 628Q1102 293 1038 -5T938 -437T883 -629Q806 -862 693 -862Q653 -862 620 -831T583 -746Q583 -711 602 -698T640 -685Q661 -685 678 -700T695 -741Q695 -789 642 -798Z" />
<glyph unicode="&#x222d;" glyph-name="uni222D" horiz-adv-x="1592" d="M114 -798Q132 -824 165 -824H167Q195 -824 223 -764T275 -600T320 -391T362 -164Q365 -143 367 -133Q439 292 523 655T645 1127Q651 1145 655 1157T672 1201T699 1257T733 1306T777 1346T828
1360Q884 1360 912 1325T944 1245Q944 1220 932 1205T909 1186T887 1183Q866 1183 849 1198T832 1239Q832 1287 885 1296L882 1300Q879 1303 874 1307T866 1313Q851 1323 833 1323Q819 1323 807 1311T775 1255T736 1139T689 936T633 628Q574 293 510 -5T410 -437T355
-629Q278 -862 165 -862Q125 -862 92 -831T55 -746Q55 -711 74 -698T112 -685Q133 -685 150 -700T167 -741Q167 -789 114 -798ZM642 -798Q660 -824 693 -824H695Q723 -824 751 -764T803 -600T848 -391T890 -164Q893 -143 895 -133Q967 292 1051 655T1173 1127Q1179
1145 1183 1157T1200 1201T1227 1257T1261 1306T1305 1346T1356 1360Q1412 1360 1440 1325T1472 1245Q1472 1220 1460 1205T1437 1186T1415 1183Q1394 1183 1377 1198T1360 1239Q1360 1287 1413 1296L1410 1300Q1407 1303 1402 1307T1394 1313Q1379 1323 1361 1323Q1347
1323 1335 1311T1303 1255T1264 1139T1217 936T1161 628Q1102 293 1038 -5T938 -437T883 -629Q806 -862 693 -862Q653 -862 620 -831T583 -746Q583 -711 602 -698T640 -685Q661 -685 678 -700T695 -741Q695 -789 642 -798ZM1150 -798Q1168 -824 1201 -824H1203Q1231
-824 1259 -764T1311 -600T1356 -391T1398 -164Q1401 -143 1403 -133Q1475 292 1559 655T1681 1127Q1687 1145 1691 1157T1708 1201T1735 1257T1769 1306T1813 1346T1864 1360Q1920 1360 1948 1325T1980 1245Q1980 1220 1968 1205T1945 1186T1923 1183Q1902 1183
1885 1198T1868 1239Q1868 1287 1921 1296L1918 1300Q1915 1303 1910 1307T1902 1313Q1887 1323 1869 1323Q1855 1323 1843 1311T1811 1255T1772 1139T1725 936T1669 628Q1610 293 1546 -5T1446 -437T1391 -629Q1314 -862 1201 -862Q1161 -862 1128 -831T1091 -746Q1091
-711 1110 -698T1148 -685Q1169 -685 1186 -700T1203 -741Q1203 -789 1150 -798Z" />
<glyph unicode="&#x222e;" glyph-name="uni222E" horiz-adv-x="556" d="M114 -798Q132 -824 165 -824H167Q195 -824 223 -764T275 -600T320 -391T362 -164Q365 -143 367 -133Q382 -52 390 2Q314 40 276 99Q230 167 230 249Q230 363 305 436T484 519H494L503 563Q587
939 632 1087T727 1298Q774 1360 828 1360Q884 1360 912 1325T944 1245Q944 1220 932 1205T909 1186T887 1183Q866 1183 849 1198T832 1239Q832 1287 885 1296L882 1300Q879 1303 874 1307T866 1313Q851 1323 833 1323Q766 1323 688 929Q662 811 610 496Q770 416
770 249Q770 147 701 68T516 -21H506L497 -65Q407 -464 357 -623T237 -837Q203 -862 165 -862Q125 -862 92 -831T55 -746Q55 -711 74 -698T112 -685Q133 -685 150 -700T167 -741Q167 -789 114 -798ZM480 478Q460 478 435 470T380 444T327 401T287 335T271 249Q271
124 375 56L397 43L431 223L485 478H480ZM519 20Q545 20 578 33T647 72T706 144T730 249Q730 383 603 455Q603 454 597 421T582 343T569 276Q516 22 515 20H519Z" />
<glyph unicode="&#x22c0;" glyph-name="uni22C0" horiz-adv-x="1111" d="M1055 -401Q1055 -419 1042 -434T1007 -450Q977 -450 963 -423Q959 -417 757 167L555 750L353 167Q151 -417 147 -423Q134 -450 104 -450Q84 -450 70 -436T55 -401Q55 -394 56 -390Q59 -381
284 270T512 925Q525 950 555 950Q583 950 597 926Q599 923 825 270T1054 -391Q1055 -394 1055 -401Z" />
<glyph unicode="&#x22c1;" glyph-name="uni22C1" horiz-adv-x="1111" d="M55 900Q55 919 69 934T103 950Q134 950 147 924Q152 913 353 333L555 -250L757 333Q958 913 963 924Q978 950 1007 950Q1028 950 1041 935T1055 901Q1055 894 1054 891Q1052 884 826 231T597
-426Q583 -450 556 -450Q527 -450 512 -424Q510 -421 285 229T56 890Q55 893 55 900Z" />
<glyph unicode="&#x22c2;" glyph-name="uni22C2" horiz-adv-x="1111" d="M57 516Q68 602 104 675T190 797T301 882T423 933T542 949Q594 949 606 948Q780 928 901 815T1048 545Q1053 516 1053 475T1055 49Q1055 -406 1054 -410Q1051 -427 1037 -438T1006 -450T976
-439T958 -411Q957 -407 957 37Q957 484 956 494Q945 643 831 747T554 852Q481 852 411 826Q301 786 232 696T154 494Q153 484 153 37Q153 -407 152 -411Q148 -428 135 -439T104 -450T73 -439T56 -410Q55 -406 55 49Q56 505 57 516Z" />
<glyph unicode="&#x22c3;" glyph-name="uni22C3" horiz-adv-x="1111" d="M56 911Q58 926 71 938T103 950Q120 950 134 939T152 911Q153 907 153 463Q153 16 154 6Q165 -143 279 -247T556 -352Q716 -352 830 -248T956 6Q957 16 957 463Q957 907 958 911Q962 928
975 939T1006 950T1037 939T1054 911Q1055 906 1055 451Q1054 -5 1053 -16Q1029 -207 889 -328T555 -449Q363 -449 226 -331T62 -45Q57 -16 57 25T55 451Q55 906 56 911Z" />
<glyph unicode="&#x2308;" glyph-name="uni2308" horiz-adv-x="528" d="M224 -649V1150H511V1099H275V-649H224Z" />
<glyph unicode="&#x2309;" glyph-name="uni2309" horiz-adv-x="528" d="M16 1099V1150H303V-649H252V1099H16Z" />
<glyph unicode="&#x230a;" glyph-name="uni230A" horiz-adv-x="528" d="M224 -649V1150H275V-598H511V-649H224Z" />
<glyph unicode="&#x230b;" glyph-name="uni230B" horiz-adv-x="528" d="M252 -598V1150H303V-649H16V-598H252Z" />
<glyph unicode="&#x27e8;" glyph-name="uni27E8" horiz-adv-x="611" d="M112 244V258L473 1130Q482 1150 498 1150Q511 1150 517 1142T523 1125V1118L344 685Q304 587 257 473T187 305L165 251L344 -184L523 -616V-623Q524 -634 517 -641T499 -649Q484 -649 473
-629L112 244Z" />
<glyph unicode="&#x27e9;" glyph-name="uni27E9" horiz-adv-x="611" d="M112 -649Q103 -649 95 -642T87 -623V-616L266 -184L445 251Q445 252 356 466T178 898T86 1123Q85 1134 93 1142T110 1150Q126 1150 133 1137Q134 1136 317 695L498 258V244L317 -194Q134
-635 133 -636Q126 -649 112 -649Z" />
<glyph unicode="&#x2a00;" glyph-name="uni2A00" horiz-adv-x="1511" d="M668 944Q697 949 744 949Q803 949 814 948Q916 937 1006 902T1154 826T1262 730T1336 638T1380 563Q1454 415 1454 250Q1454 113 1402 -14T1258 -238T1036 -391T755 -449Q608 -449 477
-392T255 -240T110 -16T56 250Q56 387 105 510T239 723T434 871T668 944ZM755 -352Q922 -352 1061 -269T1278 -48T1356 250Q1356 479 1202 652T809 850Q798 851 747 851Q634 851 527 806T337 682T204 491T154 251Q154 128 201 17T329 -176T521 -304T755 -352ZM665
250Q665 290 692 315T758 341Q792 339 818 315T845 250Q845 211 819 186T755 160Q716 160 691 186T665 250Z" />
<glyph unicode="&#x2a01;" glyph-name="uni2A01" horiz-adv-x="1511" d="M668 944Q697 949 744 949Q803 949 814 948Q916 937 1006 902T1154 826T1262 730T1336 638T1380 563Q1454 415 1454 250Q1454 113 1402 -14T1258 -238T1036 -391T755 -449Q608 -449 477
-392T255 -240T110 -16T56 250Q56 387 105 510T239 723T434 871T668 944ZM706 299V850H704Q519 832 386 725T198 476Q181 433 169 379T156 300Q156 299 431 299H706ZM1116 732Q1054 778 982 807T871 842T810 849L804 850V299H1079Q1354 299 1354 300Q1354 311 1352
329T1336 402T1299 506T1228 620T1116 732ZM706 -350V201H431Q156 201 156 200Q156 189 158 171T174 98T211 -6T282 -120T395 -232Q428 -257 464 -277T527 -308T587 -328T636 -339T678 -346T706 -350ZM1354 200Q1354 201 1079 201H804V-350Q808 -349 838 -345T887
-338T940 -323T1010 -295Q1038 -282 1067 -265T1144 -208T1229 -121T1301 0T1349 158Q1354 188 1354 200Z" />
<glyph unicode="&#x2a02;" glyph-name="uni2A02" horiz-adv-x="1511" d="M668 944Q697 949 744 949Q803 949 814 948Q916 937 1006 902T1154 826T1262 730T1336 638T1380 563Q1454 415 1454 250Q1454 113 1402 -14T1258 -238T1036 -391T755 -449Q608 -449 477
-392T255 -240T110 -16T56 250Q56 387 105 510T239 723T434 871T668 944ZM1143 709Q1138 714 1129 722T1086 752T1017 791T925 826T809 850Q798 851 747 851H728Q659 851 571 823T408 741Q367 713 367 709L755 320L1143 709ZM297 639Q296 639 282 622T247 570T205
491T169 382T154 250T168 118T204 9T247 -70T282 -122L297 -139L685 250L297 639ZM1213 -139Q1214 -139 1228 -122T1263 -70T1305 9T1341 118T1356 250T1342 382T1306 491T1263 570T1228 622L1213 639L825 250L1213 -139ZM367 -209Q373 -215 384 -224T434 -258T514
-302T622 -336T755 -352T887 -338T996 -302T1075 -259T1126 -224L1143 -209L755 180Q754 180 561 -14T367 -209Z" />
<glyph unicode="&#x2a04;" glyph-name="uni2A04" horiz-adv-x="1111" d="M56 911Q58 926 71 938T103 950Q120 950 134 939T152 911Q153 907 153 463Q153 16 154 6Q165 -143 279 -247T556 -352Q716 -352 830 -248T956 6Q957 16 957 463Q957 907 958 911Q962 928
975 939T1006 950T1037 939T1054 911Q1055 906 1055 451Q1054 -5 1053 -16Q1029 -207 889 -328T555 -449Q363 -449 226 -331T62 -45Q57 -16 57 25T55 451Q55 906 56 911ZM507 554Q511 570 523 581T554 593Q571 593 585 582T603 554Q604 551 604 443V338H709Q817
338 820 337Q835 334 847 321T859 290Q859 254 819 241Q816 240 709 240H604V134Q604 48 604 34T598 11Q583 -15 555 -15Q526 -15 512 11Q507 20 507 34T506 134V240H401H344Q292 240 278 246Q251 259 251 290Q251 309 264 321T290 337Q293 338 401 338H506V443Q506
551 507 554Z" />
<glyph unicode="&#x2a06;" glyph-name="uni2A06" horiz-adv-x="1111" d="M56 911Q60 927 72 938T103 950Q120 950 134 939T152 911Q153 907 153 277V-352H957V277Q957 907 958 911Q962 928 975 939T1006 950T1036 939T1054 911V891Q1054 871 1054 836T1054 754T1054
647T1055 525T1055 390T1055 250T1055 111T1055 -24T1055 -147T1054 -253T1054 -335T1054 -391V-411Q1047 -442 1016 -449Q1011 -450 552 -450L94 -449Q63 -439 56 -411V-391Q56 -371 56 -336T56 -254T56 -147T55 -25T55 110T55 250T55 389T55 524T55 647T56 753T56
835T56 891V911Z" />
<glyph unicode="&#xeffd;" glyph-name="uniEFFD" horiz-adv-x="300" d="M0 0V100H100V0H0ZM200 0V100H300V0H200Z" />
<glyph unicode="&#xeffe;" glyph-name="uniEFFE" horiz-adv-x="300" d="M0 0V100H100V0H0ZM200 0V100H300V0H200Z" />
<glyph unicode="&#xefff;" glyph-name="uniEFFF" horiz-adv-x="100" d="M0 0V100H100V0H0Z" />
</font>
</defs>
</svg>
